Skip to main content

Viral Sound Live at Disc Jam,Hylands Orchard & Brewery on 2011-06-17


Topics disc jam 2011




Collection ViralSoundMusic
Band/Artist Viral Sound
Venue Disc Jam,Hylands Orchard & Brewery
Location Sturbridge, MA

Source Schoeps MK41>KC5>CMC6>Sonosax SX-M2>Apogee Mini-me(aes out,24bit/96khz)>COAX>Edirol R-44 & Soundboard>R-44
Lineage SDHC Card>USB>Macbook Pro>Audacity(mixing)>Wave Editor(tracking,fades,add gain,resample(izotope)/dither(mbit+)to 16 bit/44.1k)>XAct(FLAC 8,ffp,fix sbe)
Taped by Andy Murray
Transferred by Andy Murray

Notes

Viral Sound
2011-06-17
Disc Jam
Hylands Orchard & Brewery
Sturbridge, MA

Recorded and transferred by Andy Murray

Mics were DIN 50' from stage right of center

Schoeps MK41>KC5>CMC6>Sonosax SX-M2>Apogee Mini-me(aes out24bit/96khz)>COAX>Edirol R-44 & Soundboard>R-44

SDHC Card>USB>Macbook Pro>Audacity(mixing)>Wave Editor(tracking,fades,resample(izotope)/dither(mbit+) to 16bit/44.1 khz)>XACT(FLAC 8,ffp,fix sbe)

1 Disc
1 Set

length expanded size cdr WAVE problems fmt ratio filename
3:12.74 34042892 B --- -- ----- viralsound2011-06-17_mk41mix_1644_d1t01.wav
6:16.36 66411116 B --- -- ----- viralsound2011-06-17_mk41mix_1644_d1t02.wav
7:04.01 74795996 B --- -- ----- viralsound2011-06-17_mk41mix_1644_d1t03.wav
6:30.33 68873660 B --- -- ----- viralsound2011-06-17_mk41mix_1644_d1t04.wav
8:58.73 95074940 B --- -- ----- viralsound2011-06-17_mk41mix_1644_d1t05.wav
12:32.42 132751628 B --- -- ----- viralsound2011-06-17_mk41mix_1644_d1t06.wav
6:54.65 73182524 B --- -- ----- viralsound2011-06-17_mk41mix_1644_d1t07.wav
7:56.65 84119324 B --- -- ----- viralsound2011-06-17_mk41mix_1644_d1t08.wav
59:27.14 629252080 B 1.0000 (8 files)

Reviews

Reviewer: Viral Sound - - July 19, 2011
Subject: So much fun at Disc Jam!
Setlist:
1. Sound check
2. Whose House
3. Be Dope
4. Searchin' for the Sound
5. Help on the Way > Slipknot
6. Shakin' Bones + Horizon
7. Team Space
8. Storm
PEOPLE ALSO FOUND
Viral Sound
by Viral Sound
99
0
0
Source: Schoeps MK41>KC5>CMC6>Sonosax SX-M2>Apogee Mini-me(aes out,24bit/96khz)>COAX>Edirol R-44 & Soundboard>R-44
Viral Sound
by Viral Sound
227
0
1
( 1 reviews )
Source: Schoeps MK41>KC5>CMC6>Sonosax SX-M2>Apogee Mini-me(aes out,24bit/96khz)>COAX>Edirol R-44 & Soundboard>R-44
Source: Schoeps MK41>KC5>CMC6>Sonosax SX-M2>Apogee Mini-me(aes out,24bit/96khz)>COAX>Edirol R-44 & Soundboard>R-44
( 1 reviews )
Source: Schoeps Mk41>KC5>CMC6>Sonosax SX-R4(24bit/96khz) & Soundboard
Source: Schoeps MK41>KC5>CMC6>Sonosax SX-M2>Apogee Mini-me(aes out,24bit/96khz)>COAX>Edirol R-44 & Soundboard>R-44
Source: Schoeps MK41>KC5>CMC6>Sonosax SX-M2>Apogee Mini-me(aes out,24bit/96khz)>COAX>Edirol R-44 & Soundboard>R-44
Source: Schoeps MK41>KC5>CMC6>Sonosax SX-M2>Apogee Mini-me(aes out,24bit/96khz)>COAX>Edirol R-44
Source: Schoeps MK4>KC5>CMC6>Sonosax SX-M2>Apogee Mini-me(aes out,24bit/96khz)>COAX>Edirol R-44
Otis Grove
by Otis Grove
63
0
0
Source: Schoeps MK4>KC5>CMC6>Sonosax SX-M2>Apogee Mini-me(aes out,24bit/96khz)>COAX>Edirol R-44
Dopapod
by Dopapod
214
1
0
Source: Schoeps MK22>KC5>CMC6>Sonosax SX-M2>Apogee Mini-me(aes out,24bit/96khz)>COAX>Edirol R-44